Ffmpeg Super Resolution

Introduction. The screen resolution settings of PC monitor is an important factor to consider while operating a. ffmpeg -i original. mux(Line€141:€€€€€€€€€€€€€€€€€€€€final€File€outFile€=€new€File(out); Line€142:€€€€€€€€€€€€€€€€€€€€String€stdOut€=€null; Line€143:€€€€€€€€€€€€€€€€€€€€try€. avi * Record camera's output to a avi file >> mencoder -tv device=/dev/video1 tv:// -ovc copy -o video. avi -r 30 -s 960x540 lowerres. 16384 x 8192 resolution. The Win64 zip just needs to be unpacked and if you place the video to convert in the bin-folder of ffmpeg then command line options can be used like in the posts of Nathalie and Rachel. mp4 -acodec libvorbis -aq 5 -ac 2 -qmax 25 -threads 2 myvideofile. mp4 -c:v vp9 -c:a libvorbis output. 2 Scaler Options. The command ffmpeg -codecs will print every codec FFmpeg knows about. Not a criticism, but a caveat emptor: ffmpeg is meant to do complex tasks, and there is a lot of complexity to its usage. x based implementation of. ffmpeg is the command that does all or convert your 250 frame cube render to a super-crispy lossless h264 of unparalleled awesomeness. We will use -s with the new resoution x and y sizes. mpeg -vcodec mpeg4 video. SUPER (Simplified Universal Player Encoder & Renderer) is a GUI to FFmpeg, MEncoder, MPlayer, x264, musepack, monkey's audio, true audio, wavpack, ffmpeg2theora and the theora/vorbis RealProducer plug-in. howto 1,957 views. The idea is that with sufficient training data (corresponding pairs of low and high resolution images) we can learn set of filters (i. Therefore, for __N__ FFmpeg instances, we will have N decoders, N scalers, and N encoders altogether. In contrast, cutting the same fragment in Avidemux works fine even with Video- and Audio-output settings set to Copy (IIUC, no re-encoding and start. mp3 -acodec pcm_mulaw -b:a 64 -ac 1 -ar 8000 -f rtp rtp://224. Encoding options for H264 / MPEG-AVC video. mkv" -map 0:0 -map 0:4 -map 0:5 -map 0:6 -ss 09:56. Many (most?). jpg -vf scale=320:240 output_320x240. flac -filter_complex acrossfade=d=10:c1=exp:c2=exp output. It gets dicey very quickly if they don't. FFmpeg FFmpeg is a powerful multimedia framework which allows us to decode, encode, transcode, stream, filter and play most of the media content available now. These methods find direct application in many areas such as medical imaging, security and surveillance imaging, HDTV, satellite imaging. 17 "Feynman" 2. exe and make new newfiles folder all the time. Nor has this filter been tested with anyone who has photosensitive epilepsy. SUPER can manipulate and produce many multimedia file formats supported by its back-end programs. mkv -s 640x480 -c:a copy Funny_resize. A Tensorflow 2. GitHub Gist: instantly share code, notes, and snippets. ffmpeg, WinFF, Xmedia Recode, Handbrake all succumb to this problem. Similarly, there are also confusion with x265 and H. Scaling down the resolution will made the video file less in size. 2 allows you to record smooth videos in Minecraft even at extremely low frame rates by turning the Minecraft engine into an offline. 264/MPEG-4 AVC format. [email protected] [~]# yum install ffmpeg-php Loaded plugins: fastestmirror, rhnplugin Setting up Install Process Loading mirror speeds from cached hostfile * clou. One family of super-resolution techniques is the super-resolution localization microscopy techniques, which comprise Photoactivated Localization Microscopy (PALM), Stochastic Optical Resolution Microscopy (STORM) and DNA-based Point Accumulation for Imaging in Nanoscale Topography (DNA-PAINT). mp4 -c:a copy -c:v libx264 \ For example, a level of support within a profile specifies the maximum picture resolution, frame rate, and bit rate that a decoder may use. Download32 is source for ffmpeg vb freeware download - SQL VB ASP Code Generator , VB. SR is an inverse problem, since a multiplicity of solutions exist for any given low-resolution pixel. x based implementation of. FFmpeg got a total of 8 assigned projects, and 7 of them were successful. flac · Cross fade from one input to another but without overlapping: ffmpeg -i first. If you are also finding FFmpeg tutorials, you came to the right page. mux(Line€141:€€€€€€€€€€€€€€€€€€€€final€File€outFile€=€new€File(out); Line€142:€€€€€€€€€€€€€€€€€€€€String€stdOut€=€null; Line€143:€€€€€€€€€€€€€€€€€€€€try€. However, I hit a. There are 3 components within a 1-in-1-out transcoder, namely decoder, scaler, and encoder (see Figure 6). I also grabbed a copy of ffmpeg to use the command line option in future. png Extract a Portion of a Video. ts文件,并更新m3u8文件。 Bradmax Player is a plugin, which supports video streams playback on desktops and mobile devices. mp4 -s 1280x720 -c:a copy output. Super-Resolution Localization Microscopy. com - Free |PLUGIN_DEFECT-Error: 0e8383007647bbed86722eab58ed7aef. avi ffmpeg -i input. DNA points accumulation for imaging in nanoscale topography (DNA-PAINT) offers an easy-to-implement approach to localization-based super-resolution microscopy. avi vids use older style codecs (eg XviD) which are fine, but are larger for the same quality when compared to the later generation of codecs. mkv starts at a non-key frame (sound only) and ends at a wrong place as well. It gets dicey very quickly if they don't. Recommended tool in Windows is SUPER, and in Linux is FFMPEG, i. This can be done super easily: ffmpeg -ss 00:00:30 -i orginalfile. ffplay -vcodec h264_mmal test. JDownloader - Bug #81942 Bug # 22968 (New): Hoster: youtube. 3 comments. ffmpeg -y -i /sdcard/in. ffmpeg -i original. For the final word, once VFW codecs were installed, feel free to use cvCreateCaptureFromFile to open a video file. FFmpeg got a total of 8 assigned projects, and 7 of them were successful. mp4 -vf scale=720:480 out. FFmpeg is Super -- blazingly fast. SUPER (Simplified Universal Player Encoder & Renderer) is a GUI to FFmpeg, MEncoder, MPlayer, x264, musepack, monkey's audio, true audio, wavpack, ffmpeg2theora and the theora/vorbis RealProducer plug-in. We were mostly interesting in encoding 1080p @ 60fps since that’s the rate we capture at right now. See below for an example: ffmpeg -vsync 0 -hwaccel cuvid -c:v h264_cuvid -i input. I know little about ffmpeg 48. mpg -t 00:00:05 -vcodec copy -acodec copy newfile. mov -c copy -map 0:2 -map 1:6 out. I find myself using a range of around 16~22CRF depending on source. Process is running at very low cpu usage, but nothing is written to output file. mp3 -map 0:v -map 0:a:0 -map 1:a -codec copy output. avi This is successful in giving me the desired resolution, framerate and lower file size, but it also degraded the quality way more than I expected. HandBrake is really easy to use - pop in the DVD and select it as the source for HandBrake, then select the range of chapters on the DVD you want to rip and click Start. tif, ffmpeg is able to create a video but the resolution is super small. Is there some similar filter for ffmpeg? Super Resolution. For example to remux an MP4 file containing an H. mp4 -filter:v scale=1280:720 -c:a copy output. There are 3 components within a 1-in-1-out transcoder, namely decoder, scaler, and encoder (see Figure 6). avi * Record live sound in Vorbis (eg for bootlegs or to take audio notes) >> rec -c 2 -r 44100 -s -t wav - | oggenc -q 5 --raw --raw-chan=2 --raw. Introduction. FFmpeg Basics by Frantisek Korbel, describes various FFmpeg features and common tasks. In particular it allows one to perform image rescaling and pixel format conversion. ffmpeg -i input. mux(Line€141:€€€€€€€€€€€€€€€€€€€€final€File€outFile€=€new€File(out); Line€142:€€€€€€€€€€€€€€€€€€€€String€stdOut€=€null; Line€143:€€€€€€€€€€€€€€€€€€€€try€. ffmpeg -i input. This is needed because FFmpeg will apply these settings to nested AVIO contexts automatically. Especially on rapid movements, lots of pixelish stuff. ffmpeg-i input. 7 on CentOS with cPanel and I would like to install ffmpeg-php but it tells me that I need php-gd even if it is already installed and working. We thought it was super handy so we’ll provide a link to that one too. if you need to generate multiple FFM feeds with a single ffmpeg instance, you should launch ffmpeg by hand. The only one problem is the x264 so you will need a super strong CPU to transcode movies (my test configuration had a Core i7-4720HQ and the transcoding speed ~0. That is, if you want to do something useful with it, it will never be that simple. 本文记录一个安卓平台下基于FFmpeg的视频解码器。该视频解码器C语言的源代码来自于《100行代码实现最简单的基于FFMPEG+SDL的视频播放器》。. Not a criticism, but a caveat emptor: ffmpeg is meant to do complex tasks, and there is a lot of complexity to its usage. Miele French Door Refrigerators; Bottom Freezer Refrigerators; Integrated Columns – Refrigerator and Freezers. Here is the command you may want to try: ffmpeg -i video. m3u8 stream to mp4 using ffmpeg. Android使用FFMpeg实现推送视频直播流到服务器 Posted by Klojure on January 30, 2016. ``--demuxer-lavf-propagate-opts= `` Propagate FFmpeg-level options to recursively opened connections (default: yes). 3G2" You'll want to change FFMPEG to the location of your executable, SOURCEFILE to the location of your source file, and DESTFILE to where you want the encoded file to be. This can be done super easily: ffmpeg -ss 00:00:30 -i orginalfile. ffmpeg distinguishes between two types of filtergraphs: simple and complex. However nothing shows on the screen except a blue background and "No signal". wav -f rtp rtp://224. Super-resolution is the process of creating high-resolution images from low-resolution images. patchwork patch tracking system | version v2. avi -r 30 -s 960x540 lowerres. FFmpeg (decoding only), FFmpeg with VisualOn libraries, Android (decoding only) voice recording, audio No No No Yes No G. See full list on trac. mkv ffmpeg -i input. 4 is compatible with the latest FFmpeg release (4. Downloaded mp4 video file 1080P resolution. However nothing shows on the screen except a blue background and "No signal". Scaling down the resolution will made the video file less in size. More examples can be found in this Super User answer. x265 CRF 28 is supposed to be equivalent to x264 CRF 23. Actually, -2 is a better choice since the computed value should even. FFmpeg is nice in that it dumps the SDP information for the RTP stream to the command prompt even though no SDP file is. ffmpeg -i видеофайл Она выводит много строк, интересны строки, описывающие видео и аудио: Stream #0:0: Video: h264 (High) (H264 / 0x34363248), yuv420p, 1920x1080 [SAR 1:1 DAR 16:9], 9838 kb/s, 25 fps, 25 tbr, 25 tbn, 50 tbc Stream #0:1: Audio: mp3 (U[0][0][0] / 0x0055), 44100 Hz. Read the full changelog. The resolution and FPS are well beyond what I require, so I'm trying to run a command to scale things down: ffmpeg -i highres. ; FFmpeg Beginner's handbook Chinese Version by Steven Liu, describes FFmpeg common use method in Chinese, from command line to API usage. ffplay -vcodec h264_mmal test_h264_mmal. 726: ITU-T 1990-12 Free Free Various proprietary VoIP software FFmpeg, Ekiga and other VoIP. These methods find direct application in many areas such as medical imaging, security and surveillance imaging, HDTV, satellite imaging. Features: * User friendly Interface * Material Design (Recommended By Google) * Efficient Resource Handling * AD FREE. VSRNet — "Video Super-Resolution With Convolutional Neural Networks" VESPCN — "Real-Time Video Super-Resolution with Spatio-Temporal Networks and Motion Compensation" [arxiv] This repo is a part of GSoC project for super resolution filter in ffmpeg. 1: ITU-T 1996-03 G. Amongst lots of other changes, it includes all changes from ffmpeg-mt, libav master of 2015-08-28, libav 11 as of 2015-08-28. video' - but it very rarely is. ffmpeg starts the command-i input_file path, name and extension of the input file-filter:v "scale=1440:1080:flags=lanczos, pad=1920:1080:240:0". The Win64 zip just needs to be unpacked and if you place the video to convert in the bin-folder of ffmpeg then command line options can be used like in the posts of Nathalie and Rachel. Super-resolution is an image fusion and reconstruction problem, where an improved resolution image is obtained from several geometrically warped, low resolution images. avi -filter:v scale=720:-1 -c:a copy output. mux(Line€141:€€€€€€€€€€€€€€€€€€€€final€File€outFile€=€new€File(out); Line€142:€€€€€€€€€€€€€€€€€€€€String€stdOut€=€null; Line€143:€€€€€€€€€€€€€€€€€€€€try€. ffmpeg -i original. You can also use the source file if you want: ffmpeg -re -i in. avi This is successful in giving me the desired resolution, framerate and lower file size, but it also degraded the quality way more than I expected. >> ffmpeg -an -f video4linux -s 320x240 -b 800k -r 15 -i /dev/v4l/video0 -vcodec mpeg4 myvideo. SUPER can manipulate and produce many multimedia file formats supported by its back-end programs. mp4 I can run avconv -i video. ffplay -vcodec h264_mmal test. Cross fade from one input to another but without overlapping: ffmpeg-i first. X265 is the spearhead of the next generation of codecs. I'm trying to record internet radio stream. Merging MPEG2 files founds on. ffplay -vcodec h264_mmal test_h264_mmal. One family of super-resolution techniques is the super-resolution localization microscopy techniques, which comprise Photoactivated Localization Microscopy (PALM), Stochastic Optical Resolution Microscopy (STORM) and DNA-based Point Accumulation for Imaging in Nanoscale Topography (DNA-PAINT). Super-resolution microscopy combines intrinsic optic sectioning with fast data acquisition and dual color super-resolution to provide quality images in a timely fashion for further actions It is capable of capturing molecules in actions, which can help study and understand their behaviour, interaction and other characteristics. When ffmpeg detects these frames it will spit out a bunch of EOB errors and stop encoding. [01:05] I've just moved a machine from a boxy "standard" monitor to the input on a LCD monitor that has native resolution of 1366x768. Resize Video Resolution with FFmpeg. WEBDL Ita Eng x265-NAHOM. ; FFmpeg Beginner's handbook Chinese Version by Steven Liu, describes FFmpeg common use method in Chinese, from command line to API usage. when is WD updating the firmware to support H265 HEVC codec ??. flac · Cross fade from one input to another but without overlapping: ffmpeg -i first. [FFmpeg] Remove audio from video without re-encoding using free FFmpeg Change video resolution using ffmpeg - Duration: 1:51. e $ ffmpeg -i video. ffmpeg -i видеофайл Она выводит много строк, интересны строки, описывающие видео и аудио: Stream #0:0: Video: h264 (High) (H264 / 0x34363248), yuv420p, 1920x1080 [SAR 1:1 DAR 16:9], 9838 kb/s, 25 fps, 25 tbr, 25 tbn, 50 tbc Stream #0:1: Audio: mp3 (U[0][0][0] / 0x0055), 44100 Hz. SUPER (Simplified Universal Player Encoder & Renderer) is a GUI to FFmpeg, MEncoder, MPlayer, x264, musepack, monkey's audio, true audio, wavpack, ffmpeg2theora and the theora/vorbis RealProducer plug-in. avi * Record live sound in Vorbis (eg for bootlegs or to take audio notes) >> rec -c 2 -r 44100 -s -t wav - | oggenc -q 5 --raw --raw-chan=2 --raw. See full list on github. It has important value in monitoring equipment, satellite imagery, and medical imaging. x265 CRF 28 is supposed to be equivalent to x264 CRF 23. wav -f rtp rtp://224. [FFmpeg-devel,1/7] libavfilter: Adds on the fly generation of default DNN models for tensorflow bac… - - - ----2018-08-06: Sergey Lavrushkin: New [FFmpeg-devel,GSOC] On the fly generation of default DNN models and code style fixes - - - ----2018-07-28: Sergey Lavrushkin: New [FFmpeg-devel,GSOC] ESPCN super-resolution - - - ----2018-06-28. Using "ffmpeg -i big_buck_bunny_480p_h264. 100% Upvoted. if you need to generate multiple FFM feeds with a single ffmpeg instance, you should launch ffmpeg by hand. mkv ffmpeg -i input. This project goal was to implement machine-learning-based super-resolution upscaling filter. Video file merging requires that the files you want to merge have the same resolution and file format. Sure, we can understand the thinking. br] has joined #ubuntu [12:59] super_chibi_rob0, read the man page, understand the basic layout and then its a breeze === Krokozebel [[email protected] This is another example of using FFMPEG to manipulate video and audio files. 1/10 based on 103,526 user ratings Genres : Comedy, Drama A naive man is appointed to fill a vacancy in the United. I use it and like it with 320x240 videos from my still camera - which do include a lot of aliasing. ; libavformat is a library containing demuxers and muxers for multimedia container formats. Introduction. mp4 -c:a copy –vf scale_npp=1280:720:interp_algo=super -c:v h264_nvenc -b:v 5M output_720. 66] has joined #ubuntu === ratpoison [[email protected] 17 was released on 2020-07-07. Features: * User friendly Interface * Material Design (Recommended By Google) * Efficient Resource Handling * AD FREE. [03:09] thats why your getting funky modes cuz your kvm is not telling x the proper resolution [03:09] ok [03:09] look in the section under Display [03:10] you probably either have multiple modes set or none at all [03:10] anyone familiar with Virtual box [03:10] nikrud: will you be my friend if i. srt -map 0 -map 1 -c copy -c:v libx264 -crf 23 -preset veryfast video-output. ffmpeg -i "D:\Videos\HP Chromebook 14 Review. I am trying to get resolution of the video with the following command: ffmpeg -i filename. to get the path where its installed. And not much evidence. Introduction. ubuntu is not responding. Click the correct resolution for your monitor or rift and make sure at least "Good" is checked in the quality settings. mp4 -codec copy -bsf:v hevc_mp4toannexb OUTPUT. SISR is challenging because high-frequency image content typically cannot be recovered from the low. ffmpeg -i input. >Now things are a little more fair and at least FFmpeg more or less states that is a derivative of Libav with additional features in their download page. The FFmpeg manual mention a technique called Super Resolution, and it comes in two forms: SRCNN: Super-Resolution Convolutional Neural Network model; ESPCN: Efficient Sub-Pixel Convolutional Neural Network model; Usually I can find many online sources for figuring out how to do something with FFmpeg. ffmpeg-i input. We will use -s with the new resoution x and y sizes. If you want to set a particular resolution to a video file, you can use following command: $ ffmpeg -i input. As this code tries to super-resolve the video by 4x, if one tries to super resolve 1080p video, one needs video card memory that can handle 1080x4 pixels. You can also use the source file if you want: ffmpeg -re -i in. Cross fade from one input to another but without overlapping: ffmpeg-i first. Introduction. Getting memory errors. dng extension. mp4 Change Video Resolution: ffmpeg -y -i /sdcard/in. 2 Scaler Options. Concat 2 video and add. Features: * User friendly Interface * Material Design (Recommended By Google) * Efficient Resource Handling * AD FREE. can anyone help me fix the resolution? fglrx is the current driver [01:05] TiredWolf, packages. How do I tell it to quit trying to render HD content on my p3? === meia [[email protected] 本文记录一个安卓平台下基于FFmpeg的视频解码器。该视频解码器C语言的源代码来自于《100行代码实现最简单的基于FFMPEG+SDL的视频播放器》。. mp4" -vf scale=-2:240 "D:\Videos\HP Chromebook 14 Review - 240p ffmpeg. Books about FFmpeg. This is a step-by-step guide to help readers start using VMAF to evaluate video quality through FFmpeg. $ ffmpeg -i Funny. ffmpeg -i original. mov (specified by the identifier "1:6"), and copy them to the output file out. mpg -t 00:00:05 -vcodec copy -acodec copy newfile. FFmpeg Decoder Wrapper 0. Following is an FFmpeg command to accomplish this task. Output of ps -C ffmpeg -o state,pcpu,rss,vsize,nwchan,thcount,args. exe in for example C:\ffmpeg and make the newfiles folder under C: ewfiles and you never have to move around the ffmpeg. flac -i second. Here comes the tricky part, movie when played, either with VLC or WMP, has a reso. ffmpeg -y -i /sdcard/in. It includes the following library versions:. Highlights include a dip into audio processing with sox and FFMPEG, scripting for Gmail. 224:21414/live. ``--demuxer-lavf-propagate-opts= `` Propagate FFmpeg-level options to recursively opened connections (default: yes). For example, to use bilinear instead of the default bicubic scaling: ffmpeg -i test. avi * Record live sound in Vorbis (eg for bootlegs or to take audio notes) >> rec -c 2 -r 44100 -s -t wav - | oggenc -q 5 --raw --raw-chan=2 --raw. ffmpeg is the command that does all or convert your 250 frame cube render to a super-crispy lossless h264 of unparalleled awesomeness. 2 allows you to record smooth videos in Minecraft even at extremely low frame rates by turning the Minecraft engine into an offline. mp4 -strict experimental -vcodec copy -acodec libmp3lame -ab 64k -ac 2 -b 1200000 -ar 22050 /sdcard/out. png Extract a Portion of a Video. Nor has this filter been tested with anyone who has photosensitive epilepsy. 17 was released on 2020-07-07. ogg and it will convert this vide. It was part of the whole Microsoft Expression suite as I use Expression Web to do HTML editing. bat file in the video folder. Ah, here you go. The network structure is very simple, using only three convolutional layers. 5 download available here. Highlights include a dip into audio processing with sox and FFMPEG, scripting for Gmail. the only thing that's wrong then, is just that 1024x768 isn't the optimal resolution for your monitor. In contrast, cutting the same fragment in Avidemux works fine even with Video- and Audio-output settings set to Copy (IIUC, no re-encoding and start. It is used to converting files. ffplay -vcodec h264_mmal test. It gets dicey very quickly if they don't. And not much evidence. jpg -vf scale=320:240 output_320x240. 264 video compression standard (eg. mp4 -s 1280x720 -c:a copy output. gr] has joined. avi ffmpeg -i input. We were mostly interesting in encoding 1080p @ 60fps since that’s the rate we capture at right now. 1) and current FFmpeg development version (FFmpeg master). avi -vf scale=160:90 agif_160x90. tif -vf scale=504:376 -sws_flags bilinear out. mov To select all video and the third audio stream from an input. libavformat implements streaming protocols, container formats and basic I/O access. ffplay -vcodec h264_mmal test. Here is the command you may want to try: ffmpeg -i video. ffmpeg -i first. I have many formats each age group. tif, ffmpeg is able to create a video but the resolution is super small. ; Wide Activation for Efficient and Accurate Image Super-Resolution (WDSR), winner of the NTIRE 2018 super-resolution challenge (realistic tracks). ffmpeg -re -i out. Installing FFMPEG for Raspberry Pi. Change resolution of video files. With a reasonably recent ffmpeg, you can resize your video with these options: ffmpeg -i in. This is from a set of CinemaDNG images. The options offered by FFmpeg are many and complex a bit so you must make certain that you are doing the right thing. Resize Video Resolution with FFmpeg. 8 release branch, which was cut from master on 2015-09-05. >> ffmpeg -an -f video4linux -s 320x240 -b 800k -r 15 -i /dev/v4l/video0 -vcodec mpeg4 myvideo. The video scaler supports the following named options. ffmpeg -i original. Features: * User friendly Interface * Material Design (Recommended By Google) * Efficient Resource Handling * AD FREE. And not much evidence. I t’s cold outside! So grab a copy of the Hackaday Podcast, and catch up on what you missed this week. Thanks to all for your excellent advice above. 2 allows you to record smooth videos in Minecraft even at extremely low frame rates by turning the Minecraft engine into an offline. JDownloader - Bug #81942 Bug # 22968 (New): Hoster: youtube. In particular it allows one to perform image rescaling and pixel format conversion. video' - but it very rarely is. $ ffmpeg -i Funny. mkv" -map 0:0 -map 0:4 -map 0:5 -map 0:6 -ss 09:56. libavutil is a library containing functions for simplifying programming, including random number generators, data structures, mathematics routines, core multimedia utilities, and much more. mp4 Mixing CPU and GPU processing. Video Encoder Video Player Video Converter Encoder Converter Encode FFmpeg. 66] has joined #ubuntu === ratpoison [[email protected] In this article, you will learn three usual methods to FFmpeg resize videos. ffmpeg -f v4l2 -r 30 -s 640x480 -an -sn -i /dev/video0 -f avi temp Unfortunately fps is too low for 640x480 (around. eval in the answer has been eliminated for a super simple solution that I somehow missed despite staring at the documentation for years. mp3 This command has four parts: ffmpeg - This command tells cmd that we want to run ffmpeg commands. avi * Record live sound in Vorbis (eg for bootlegs or to take audio notes) >> rec -c 2 -r 44100 -s -t wav - | oggenc -q 5 --raw --raw-chan=2 --raw. This is needed because FFmpeg will apply these settings to nested AVIO contexts automatically. ffmpeg -i myvideofile. mkv -s 640x480 -c:a copy Funny_resize. And th immediately leads tois confusion: does it refer to an improvement of the (theoretical) optical resolution or an improvement of the measurable resolution when an image is recorded or both?. FFmpeg has added a realtime bright flash removal filter to libavfilter. Note that this filter is not FDA approved, nor are we medical professionals. [01:05] I've just moved a machine from a boxy "standard" monitor to the input on a LCD monitor that has native resolution of 1366x768. The only one problem is the x264 so you will need a super strong CPU to transcode movies (my test configuration had a Core i7-4720HQ and the transcoding speed ~0. We will use -s with the new resoution x and y sizes. DVCPRO 50 delivers considerably higher picture quality since it uses less compression than DV. 5x and the movie was 1080p) I tested the nvenc (nvidia hardware accelerated transcoding), but I can't modify deeply enough the configuration. mp4 -c:a copy –vf scale_npp=1280:720:interp_algo=super -c:v h264_nvenc -b:v 5M output_720. video' - but it very rarely is. You have to convert if they don't, see HOWTO Convert video files. avi is just a container. Or, $ ffmpeg -i input. With such a strong 1080p performance the Radeon RX Vega 64 Nano 8GB overshadows the. I also grabbed a copy of ffmpeg to use the command line option in future. mp4 I can run avconv -i video. For instance if I have a file called video. In the example we will resize the video as 640x480. More examples can be found in this Super User answer. The above command will set the resolution of the given video file to 1280x720. ffmpeg -i myvideofile. With such a strong 1080p performance the Radeon RX Vega 64 Nano 8GB overshadows the. Resize Video Resolution with FFmpeg. Books about FFmpeg. CVE-2017-5051. flac -i second. You can specify which algorithm is used for resizing with the -sws_flags option. Some versions of ffmpeg will refuse to use certain codecs unless you specify -strict experimental. Using "ffmpeg -i big_buck_bunny_480p_h264. a mapping) that when applied to given image that is not in the training set, will produce a higher resolution version of it, where. libavcodec provides implementation of a wider range of codecs. 17 was released on 2020-07-07. You’re also right that a sample size of a single source isn’t super telling for stuff like anime vs action vs documentary. flac -filter_complex acrossfade=d=10:c1=exp:c2=exp output. It is the latest stable FFmpeg release from the 2. mov To select all video and the third audio stream from an input. Parallel Super-Resolution is a multithreaded ImageJ plugin for super-resolution. 本文记录一个安卓平台下基于FFmpeg的视频解码器。该视频解码器C语言的源代码来自于《100行代码实现最简单的基于FFMPEG+SDL的视频播放器》。. mp4 Mixing CPU and GPU processing. 5x and the movie was 1080p) I tested the nvenc (nvidia hardware accelerated transcoding), but I can't modify deeply enough the configuration. Description: Super resolution methods aim to recover high-resolution images from low-resolution images. 66] has joined #ubuntu === ratpoison [[email protected] We are located in the Institute for Quantitative Biomedicine on Busch Campus. jpg -vf scale=320:240 output_320x240. I want to install ffmpeg to my CentOS 7 server but I can't, it say we missing some libs that I can't find where and how to install them. Super-resolution is the process of creating high-resolution images from low-resolution images. avi This is successful in giving me the desired resolution, framerate and lower file size, but it also degraded the quality way more than I expected. Concat 2 video and add. 0 KHz Resolution : 16 bits Video delay : 48ms Stream size : 306 KiB (1%) I'm a MEGA Super Moderator. mux(Line€141:€€€€€€€€€€€€€€€€€€€€final€File€outFile€=€new€File(out); Line€142:€€€€€€€€€€€€€€€€€€€€String€stdOut€=€null; Line€143:€€€€€€€€€€€€€€€€€€€€try€. zip Container: Quicktime Codec: PhotoJPeg(High) Dimensions: 624 x 352 FPS : 23. To make images larger in the image dimensions it is necessary to predict the values of the additional pixels between the original pixels. mkv -i audio. mp4 -strict experimental -vf transpose=3 -s 320×240 -r 15 -aspect 3:4 -ab 12288 -vcodec mpeg4 -b 2097152 -sample_fmt s16 /sdcard/out. jpg… April 24, 2020 Understanding FFmpeg map with examples. Super low-res still from “South Park” (season 7, episode 1). flac -filter_complex acrossfade=d=10:c1=exp:c2=exp output. FFmpeg is a collection of libraries and tools to process multimedia content such as audio, video, subtitles and related metadata. Or, $ ffmpeg -i input. Nor has this filter been tested with anyone who has photosensitive epilepsy. However, further resolution improvement by reducing the pixel pitch or the aperture of the detector elements is difficult because of the tradeoff between the pixel size and dose level. With this super high resolution, 4K movie is loved by cinephile rapidly. mpg -t 00:00:05 -vcodec copy -acodec copy newfile. FFmpeg is a free and open-source project consisting of a vast software suite of libraries and programs for handling video, audio, and other multimedia files and streams. Audacity is quite useful for viewing the audio level and removing background noise. Creating a video from an image and audio file with FFmpeg can be achieved in many different ways, but let’s keep it super simple: ffmpeg -loop -1 -y -i theimage. mkv Note that lossless output files will likely be huge, and most non-FFmpeg based players will not be able to decode lossless, so if compatibility or file size issues you should not use lossless. So you could type: ffmpeg -i in. mp4 Mixing CPU and GPU processing. You have to convert if they don't, see HOWTO Convert video files. mp4" Option 3: Scale the video, keep aspect ratio and pad with black bars so that the video size is exactly 480x320. mp4" -vf scale=-2:240 "D:\Videos\HP Chromebook 14 Review - 240p ffmpeg. The only one problem is the x264 so you will need a super strong CPU to transcode movies (my test configuration had a Core i7-4720HQ and the transcoding speed ~0. The tarball already includes an FFmpeg snapshot, so you don't need to fetch it separately. The idea is that with sufficient training data (corresponding pairs of low and high resolution images) we can learn set of filters (i. mp4 -strict experimental -vcodec copy -acodec libmp3lame -ab 64k -ac 2 -b 1200000 -ar 22050 /sdcard/out. NET Quick Reference , VB Documentation Tool , GStreamer FFmpeg Plug-in , VB. The FFmpeg solution described above utilizes this model and has N FFmpeg instances. 265, so that you can play various videos of any resolution or format. It has important value in monitoring equipment, satellite imagery, and medical imaging. >> ffmpeg -an -f video4linux -s 320x240 -b 800k -r 15 -i /dev/v4l/video0 -vcodec mpeg4 myvideo. I want to install ffmpeg to my CentOS 7 server but I can't, it say we missing some libs that I can't find where and how to install them. com - Free Hoster: youtube. 16~18 for anime, 20 for most things, then 22 for old / film gray heavy movies (looking at you Ron Howard). SR is an inverse problem, since a multiplicity of solutions exist for any given low-resolution pixel. mkv -vf "scale=iw/2:ih/2" half_the_frame_size. Super fast converting speed and full quality video output. Quick question, i have a movie, which was cut and rendered with Sony Vegas from its original format to a. ffmpeg -i original. Introduction. DVD Audio, Super Audio CD. I tried the command: ffmpeg -i %s_ann. The network structure is very simple, using only three convolutional layers. avi * Record live sound in Vorbis (eg for bootlegs or to take audio notes) >> rec -c 2 -r 44100 -s -t wav - | oggenc -q 5 --raw --raw-chan=2 --raw. Scaling down the resolution will made the video file less in size. 5 download available here. Using "ffmpeg -i big_buck_bunny_480p_h264. I then used a little script that reads does ffmpeg -i infile -pix_fmt yuv420p -crf 23 outfile to turn that dv file into an mp4 But alas, the quality of the mp4 isn't that convincing. Video files can be resized. For example to remux an MP4 file containing an H. mp3 -map 0:v -map 0:a:0 -map 1:a -codec copy output. The options offered by FFmpeg are many and complex a bit so you must make certain that you are doing the right thing. This project goal was to implement machine-learning-based super-resolution upscaling filter. if you need to generate multiple FFM feeds with a single ffmpeg instance, you should launch ffmpeg by hand. 1/10 based on 103,526 user ratings Genres : Comedy, Drama A naive man is appointed to fill a vacancy in the United. [03:09] thats why your getting funky modes cuz your kvm is not telling x the proper resolution [03:09] ok [03:09] look in the section under Display [03:10] you probably either have multiple modes set or none at all [03:10] anyone familiar with Virtual box [03:10] nikrud: will you be my friend if i. mkv" -map 0:0 -map 0:4 -map 0:5 -map 0:6 -ss 09:56. save hide report. I t’s cold outside! So grab a copy of the Hackaday Podcast, and catch up on what you missed this week. mp4 -vf scale=480x320,setsar=1:1 %s_annShrink. mp4 -vf scale=720:480 out. Using the super-sampling algorithm is recommended for best quality when downscaling. DVCPRO 50 delivers considerably higher picture quality since it uses less compression than DV. Following is an FFmpeg command to accomplish this task. 264/MPEG-4 AVC format. NET Examples Collection, etc. The FFmpeg manual mention a technique called Super Resolution, and it comes in two forms: SRCNN : Super-Resolution Convolutional Neural Network model ESPCN : Efficient Sub-Pixel Convolutional Neural Network model. This can be done super easily: ffmpeg -ss 00:00:30 -i orginalfile. Books about FFmpeg. FFmpeg is a collection of libraries and tools to process multimedia content such as audio, video, subtitles and related metadata. mpg -t 00:00:05 -vcodec copy -acodec copy newfile. Video files can be resized. It happens almost always during first ten minutes that ffmpeg hangs. Reduce the resolution of the input video. I have videos with different resolution. This thread is archived. FFmpeg has added a realtime bright flash removal filter to libavfilter. cmd will first look for ffmpeg. [FFmpeg] Remove audio from video without re-encoding using free FFmpeg Change video resolution using ffmpeg - Duration: 1:51. Try adding it if ffmpeg refuses to do something when your options should work. This is generally known as the Single Image Super-Resolution (SISR) problem. 265, so that you can play various videos of any resolution or format. bat file in the video folder. This is a step-by-step guide to help readers start using VMAF to evaluate video quality through FFmpeg. This example considers single image super-resolution (SISR), where the goal is to recover one high-resolution image from one low-resolution image. For example, to use bilinear instead of the default bicubic scaling: ffmpeg -i test. libavformat implements streaming protocols, container formats and basic I/O access. See below for an example: ffmpeg -vsync 0 -hwaccel cuvid -c:v h264_cuvid -i input. Or, $ ffmpeg -i input. Is there some similar filter for ffmpeg? Super Resolution. mkv Summary. flac acrusher Reduce audio bit resolution. Books about FFmpeg. Output from ffmpeg (terminated with SIG_INT) in the attached file. ; libavcodec is a library containing decoders and encoders for audio/video codecs. mp3 This command has four parts: ffmpeg - This command tells cmd that we want to run ffmpeg commands. With the help of these tools, you. Downloaded mp4 video file 1080P resolution. Super-resolution is therefore used to describe techniques that enhance the resolution of the microscope image. The result is a resolution of 720 x 576 pixels at 25 frames per second, for 50Hz TV sets, or a resolution of 720 x 480 pixels at 29. mpg -t 00:00:05 -vcodec copy -acodec copy newfile. bat file in the video folder. png Extract a Portion of a Video. VSRNet — "Video Super-Resolution With Convolutional Neural Networks" VESPCN — "Real-Time Video Super-Resolution with Spatio-Temporal Networks and Motion Compensation" [arxiv] This repo is a part of GSoC project for super resolution filter in ffmpeg. mkv -s 640x480 -c:a copy Funny_resize. Audacity is quite useful for viewing the audio level and removing background noise. Super-resolution is the process of creating high-resolution images from low-resolution images. avi -filter:v scale=720:-1 -c:a copy output. tree path: root node -> 86507b3a0 clusters in node: 798 spam scores: The spammiest documents have a score of 0, and the least spammy have a score of 99. With the extensions changed to. Super-resolution microscopy combines intrinsic optic sectioning with fast data acquisition and dual color super-resolution to provide quality images in a timely fashion for further actions It is capable of capturing molecules in actions, which can help study and understand their behaviour, interaction and other characteristics. The FFmpeg manual mention a technique called Super Resolution, and it comes in two forms: SRCNN: Super-Resolution Convolutional Neural Network model; ESPCN: Efficient Sub-Pixel Convolutional Neural Network model; Usually I can find many online sources for figuring out how to do something with FFmpeg. It includes the following library versions:. Using the super-sampling algorithm is recommended for best quality when downscaling. mp4 -filter:v scale=1280:720 -c:a copy output. ffmpeg -i видеофайл Она выводит много строк, интересны строки, описывающие видео и аудио: Stream #0:0: Video: h264 (High) (H264 / 0x34363248), yuv420p, 1920x1080 [SAR 1:1 DAR 16:9], 9838 kb/s, 25 fps, 25 tbr, 25 tbn, 50 tbc Stream #0:1: Audio: mp3 (U[0][0][0] / 0x0055), 44100 Hz. 264 (muxer "h264" ) output formats. Hello, I\'m running CloudLinux Server release 6. eval in the answer has been eliminated for a super simple solution that I somehow missed despite staring at the documentation for years. try setting it at a higher resolution [04:27] otherwise,,, you just have to live with it [04:28] and more importantly, how can i stop it?. I then used a little script that reads does ffmpeg -i infile -pix_fmt yuv420p -crf 23 outfile to turn that dv file into an mp4 But alas, the quality of the mp4 isn't that convincing. exe to enable it to read. 8 release branch, which was cut from master on 2015-09-05. ; libavformat is a library containing demuxers and muxers for multimedia container formats. flac -filter_complex acrossfade=d=10:c1=exp:c2=exp output. Miele French Door Refrigerators; Bottom Freezer Refrigerators; Integrated Columns – Refrigerator and Freezers. It happens almost always during first ten minutes that ffmpeg hangs. mkv" -map 0:0 -map 0:4 -map 0:5 -map 0:6 -ss 09:56. Change resolution of video files. [01:05] I've just moved a machine from a boxy "standard" monitor to the input on a LCD monitor that has native resolution of 1366x768. 8 release branch, which was cut from master on 2015-09-05. Video Encoder Video Player Video Converter Encoder Converter Encode FFmpeg. FFmpeg README. So you could type: ffmpeg -i in. ffmpeg -i "D:\Videos\HP Chromebook 14 Review. It includes the following library versions:. >Now things are a little more fair and at least FFmpeg more or less states that is a derivative of Libav with additional features in their download page. 41pre6 (13:07 build) x86 ffmpeg-dll-r22716-win32. 224:21414/live. How do I tell it to quit trying to render HD content on my p3? === meia [[email protected] Single Image Super-Resolution with EDSR, WDSR and SRGAN. The FFmpeg manual mention a technique called Super Resolution, and it comes in two forms: SRCNN : Super-Resolution Convolutional Neural Network model ESPCN : Efficient Sub-Pixel Convolutional Neural Network model. Cross fade from one input to another but without overlapping: ffmpeg-i first. I find myself using a range of around 16~22CRF depending on source. Super Resolution filter. For example, to use bilinear instead of the default bicubic scaling: ffmpeg -i test. Miele French Door Refrigerators; Bottom Freezer Refrigerators; Integrated Columns – Refrigerator and Freezers. Please note: the ffmpegX project is not associated with the ffmpeg project, and support emails about ffmpegX should not be sent to the ffmpeg project ! As simple as 1. mp3 This command has four parts: ffmpeg - This command tells cmd that we want to run ffmpeg commands. 2018-06-27 14:11 GMT+03:00 Michael Niedermayer : > On Tue, Jun 26, 2018 at 06:48:47PM +0300, Sergey Lavrushkin wrote: > > Hello, > > > > This patch adds ES. jdownloader. codecx264) and aac compression for audio. FFmpeg is a collection of libraries and tools to process multimedia content such as audio, video, subtitles and related metadata. As this code tries to super-resolve the video by 4x, if one tries to super resolve 1080p video, one needs video card memory that can handle 1080x4 pixels. WEBDL Ita Eng x265-NAHOM. ffmpeg -i input. Amongst lots of other changes, it includes all changes from ffmpeg-mt, libav master of 2015-08-28, libav 11 as of 2015-08-28. The FFmpeg rescaler provides a high-level interface to the libswscale library image conversion utilities. mp4 -i subtitles. If you want to set a particular resolution to a video file, you can use following command: $ ffmpeg -i input. This thread is archived. zip Container: Quicktime Codec: PhotoJPeg(High) Dimensions: 624 x 352 FPS : 23. You have to convert if they don't, see HOWTO Convert video files. The FFmpeg rescaler provides a high-level interface to the libswscale library image conversion utilities. libavformat implements streaming protocols, container formats and basic I/O access. mp4 -strict experimental -vf transpose=3 -s 320×240 -r 15 -aspect 3:4 -ab 12288 -vcodec mpeg4 -b 2097152 -sample_fmt s16 /sdcard/out. mov To select all video and the third audio stream from an input. Another very common operation on video files is to extract a specific portion of a given video. Actually, -2 is a better choice since the computed value should even. I know how to do this in 2 steps, by first encoding in 960 x 720 (ffmpeg with -vf scale=96. I developed the Riva FLV Encoder, a GUI for FFMPEG. 3G2" You'll want to change FFMPEG to the location of your executable, SOURCEFILE to the location of your source file, and DESTFILE to where you want the encoded file to be. FFmpeg is a free and open-source project consisting of a vast software suite of libraries and programs for handling video, audio, and other multimedia files and streams. I'd like to encode a video, say, in 960 x 720 but have video players automatically play it in 1280 x 720. The Vutara SRX workflow-driven software guides users through the setup, calibration, imaging, processing, and analysis of the super-resolution single molecule localization experiment. It happens almost always during first ten minutes that ffmpeg hangs. Followed the above procedure for installing ffmpeg Executed the following commands: ffmpeg -f -i test. Books about FFmpeg. post314-g78a3d57 | about patchwork patch tracking system | version v2. However nothing shows on the screen except a blue background and "No signal". Getting memory errors. And th immediately leads tois confusion: does it refer to an improvement of the (theoretical) optical resolution or an improvement of the measurable resolution when an image is recorded or both?. [03:09] thats why your getting funky modes cuz your kvm is not telling x the proper resolution [03:09] ok [03:09] look in the section under Display [03:10] you probably either have multiple modes set or none at all [03:10] anyone familiar with Virtual box [03:10] nikrud: will you be my friend if i. DVD Audio, Super Audio CD. DNA points accumulation for imaging in nanoscale topography (DNA-PAINT) offers an easy-to-implement approach to localization-based super-resolution microscopy. To record video from my USB webcam I use ffmpeg with v4l2 driver (command below). [FFmpeg-devel,1/7] libavfilter: Adds on the fly generation of default DNN models for tensorflow bac… - - - ----2018-08-06: Sergey Lavrushkin: New [FFmpeg-devel,GSOC] On the fly generation of default DNN models and code style fixes - - - ----2018-07-28: Sergey Lavrushkin: New [FFmpeg-devel,GSOC] ESPCN super-resolution - - - ----2018-06-28. Output of ps -C ffmpeg -o state,pcpu,rss,vsize,nwchan,thcount,args. ; libavformat is a library containing demuxers and muxers for multimedia container formats. FFmpeg (decoding only), FFmpeg with VisualOn libraries, Android (decoding only) voice recording, audio No No No Yes No G. Another very common operation on video files is to extract a specific portion of a given video. 3G2" You'll want to change FFMPEG to the location of your executable, SOURCEFILE to the location of your source file, and DESTFILE to where you want the encoded file to be. answered 8 hours ago Mark 101. I'd like to encode a video, say, in 960 x 720 but have video players automatically play it in 1280 x 720. Simple filtergraphs are those that have exactly one input and output, both of the same type. This thread is archived. 1:51 [WinMerge] (Super Quick) - Duration: 4. Then i need to change the extension to. ffmpeg -i first. mkv -i audio. 012 -to 00:10:00. Process is running at very low cpu usage, but nothing is written to output file. Following is an FFmpeg command to accomplish this task. ffmpeg -i input. avi is just a container. I use it and like it with 320x240 videos from my still camera - which do include a lot of aliasing. If you are also finding FFmpeg tutorials, you came to the right page. ffmpeg -i input. Video compression is nothing but scaling down the resolution of the video and it can be done with the help of a simple FFmpeg command. mpg -t 00:00:05 -vcodec copy -acodec copy newfile. Description: Super resolution methods aim to recover high-resolution images from low-resolution images. Single Image Super-Resolution with EDSR, WDSR and SRGAN. Amongst lots of other changes, it includes all changes from ffmpeg-mt, libav master of 2015-08-28, libav 11 as of 2015-08-28. It is released under the terms of the GNU General Public License. CVE-2017-5051. I t’s cold outside! So grab a copy of the Hackaday Podcast, and catch up on what you missed this week. ffmpeg -i input -c:v libx264 -preset veryslow -crf 0 output. Super-resolution techniques have begun to transform biological and biomedical research by allowing researchers to observe structures well below the classic diffraction limit of light. 265 (muxer "h265" or "hevc") output formats. Design by Made By Argon. save hide report.